CLUB TEEN HUẾ

CLUB TEEN HUẾ

Diễn Đàn Giao Lưu CLUB TEEN HUẾ
 
Trang ChínhPortalCalendarGalleryTrợ giúpThành viênNhómĐăng kýĐăng Nhập
:: Forum 4ALL - Mái Nhà Tình Bạn ::
  • Music

Share | 
 

 Priest 2011 - Sát Thủ Ma Cà Rồng 2011

Xem chủ đề cũ hơn Xem chủ đề mới hơn Go down 
Tác giảThông điệp
dcmm
Thành viên xuất sắc
Thành viên xuất sắc
avatar

Tổng số bài gửi : 427
i am admin : 9
Join date : 02/12/2010
Đến từ : 06/06/91

Tổng số bài gửi : 427
i am admin : 9
Join date : 02/12/2010
Đến từ : 06/06/91
Bài gửiTiêu đề: Priest 2011 - Sát Thủ Ma Cà Rồng 2011   Sat Jun 04, 2011 8:10 pm

Priest 2011
Sát Thủ Ma Cà Rồng 2011

Encode by Mr.Ninhacc




IMDb
http://www.imdb.com/title/tt0822847/


INFO
Trích dẫn :
Tên phim: Priest

Đạo diễn: Scott Charles Stewart

Kịch bản:
Cory Goodman (written by)
Min-Woo Hyung (graphic novel series "Priest")

Ngày khởi chiếu:
13/05/2011 (USA)
17/06/2011 (Việt Nam)

Website chính thức: Trang chủ | Facebook | Twitter

Thể loại: Hành Động | Kinh Dị | Giả Tưởng | Hồi Hộp

Xếp loại: PG-13

Thời lượng: 87 phút

Ngôn ngữ: Tiếng Anh

Nước sản xuất: Hoa Kỳ

Hãng sản xuất:
Buckaroo Entertainment
Michael De Luca Productions
Screen Gems
Stars Road Entertainment
TOKYOPOP

Các diễn viên chính:

Paul Bettany ... Priest

Cam Gigandet ... Hicks

Maggie Q ... Priestess

Karl Urban ... Black Hat

Lily Collins ... Lucy

Stephen Moyer ... Aaron

Mädchen Amick ... Shannon

Christopher Plummer ... Monsignor Orelas

Media Info
Code:
Sat.Thu.Ma.Ca.Rong.2011.R5.x264 - Mr.Ninhacc.mkv
Format                          : Matroska
File size                        : 557 MiB
Duration                        : 1h 23mn
Overall bit rate                : 929 Kbps
Encoded date                    : UTC 2011-06-04 05:47:44
Writing application              : mkvmerge v4.5.0 ('Speed of Light') built on Feb  1 2011 02:10:32
Writing library                  : libebml v1.2.0 + libmatroska v1.1.0

Video
ID                              : 1
Format                          : AVC
Format/Info                      : Advanced Video Codec
Format profile                  : High@L3.0
Format settings, CABAC          : Yes
Format settings, ReFrames        : 5 frames
Muxing mode                      : Header stripping
Codec ID                        : V_MPEG4/ISO/AVC
Duration                        : 1h 23mn
Bit rate                        : 800 Kbps
Width                            : 720 pixels
Height                          : 304 pixels
Display aspect ratio            : 2.35:1
Original display aspect ratio    : 2.35:1
Frame rate                      : 25.000 fps
Color space                      : YUV
Chroma subsampling              : 4:2:0
Bit depth                        : 8 bits
Scan type                        : Progressive
Bits/(Pixel*Frame)              : 0.146
Stream size                      : 469 MiB (84%)

Audio
ID                              : 2
Format                          : MPEG Audio
Format version                  : Version 1
Format profile                  : Layer 3
Mode                            : Joint stereo
Muxing mode                      : Header stripping
Codec ID                        : A_MPEG/L3
Codec ID/Hint                    : MP3
Duration                        : 1h 23mn
Bit rate mode                    : Constant
Bit rate                        : 128 Kbps
Channel(s)                      : 2 channels
Sampling rate                    : 44.1 KHz
Compression mode                : Lossy
Stream size                      : 76.7 MiB (14%)
Writing library                  : LAME3.98r
Encoding settings                : -m j -V 4 -q 2 -lowpass 17 -b 128

Nội Dung
Trích dẫn :
'Priest', một bộ phim viễn tưởng kinh dị, lấy bối cảnh trong một thế giới hoàn toàn khác, bị tàn phá hàng thế kỉ bởi cuộc chiến tranh giữa loài người và ma cà rồng. Câu chuyện xoay quanh chiến binh huyền thoại Priest (Paul Bettany), sống sót từ sau Cuộc Chiến Ma Cà Rồng gần đây nhất đang phải sống náu mình trong số những con người bị áp bức đang trú ẩn trong thành phố khép kín. Khi cô cháu gái của anh (Lily Collins) bị một bọn ma cà rồng tàn ác bắt cóc, Priest đã phá bỏ lời thề thiêng liêng của mình để liều mình tìm kiếm cô cháu gái trước khi chúng biến nó thành ma cà rồng. Anh đã thành lập đội thập tự chinh của mình và bao gồm bạn trai của cô cháu gái (Cam Gigandet), cậu cảnh sát trường trẻ tuổi và nữ chiến binh Priestess (Maggie Q) cũng đã từng tham gia cuộc chiến lần trước, người có được những kĩ năng chiến đấu rất tốt.

















Dung Lượng 550 MB | 2 Part 200MB - 1 Part 150MB
mediafire.com ?q78oq5b2eyt2y1l
mediafire.com ?x9wfuwg4qoebefi

mediafire.com ?31pr3xjoq8xf33e
Pass Join: Mr.Ninhacc


Sub Việt
http://subscene.com/vietnamese/Pries...le-444056.aspx



Về Đầu Trang Go down
Xem lý lịch thành viên
 

Priest 2011 - Sát Thủ Ma Cà Rồng 2011

Xem chủ đề cũ hơn Xem chủ đề mới hơn Về Đầu Trang 

 Similar topics

-
» Insidious - Ma Quái [DVDrip] [VietSub] [2011] - Đáng xem!!!!
Trang 1 trong tổng số 1 trang

Permissions in this forum:Bạn không có quyền trả lời bài viết
CLUB TEEN HUẾ :: Khu Vực Giải Trí :: Phim-